当前位置: 首页 >> 欧美电影 >> 烈火情人.Damage.1992.迅雷下载.BluRay.1280x696p[中英双字] >> 正文

烈火情人.Damage.1992.迅雷下载.BluRay.1280x696p[中英双字]

2017年03月29日 00:03:33     电影发布:高清电影下载     电影分类:欧美电影     阅读次数:人次阅读">    

 烈火情人.Damage.1992.迅雷下载.BluRay.1280x696p[中英双字] 欧美电影 第1张

※※※※※※※ 影片信息 ※※※※※※※


◎片   名 Damage

◎译   名 烈火情人/爱情重伤 / 毁灭 / 命中注定 

◎年   代 1992

◎国   家 英国

◎类   别 剧情 / 爱情 / 情色

◎语   言 英语

◎字   幕 中英字幕/中文字幕/英文字幕

◎IMDB评分   

◎分   辨率  1280x696p

◎片   长 111mins

◎导   演 路易·马勒

◎主   演 杰瑞米·艾恩斯 / 朱丽叶·比诺什 / 米兰达·理查森 / 鲁珀特·格雷夫斯 / 伊安·邦纳 

 

◎简  介

  即将入职的内阁部长史蒂夫(杰瑞米?艾恩斯 Jeremy Irons 饰)同妻子英格丽、儿子马丁(拉珀特?格雷夫斯 Rupert Graves 饰)平静安逸地生活着。安娜(朱丽叶?比诺什 Juliette Binoche 饰)的出现像是一股汹涌的暗流冲撞着这个看似完满的家庭。安娜是儿子的女朋友,却背地里与史蒂夫展开了一段热烈浪漫的关系。安娜曾经在青春期里与哥哥的畸恋记忆一直影响着她,这使她一面寻找各种机会和史蒂夫约会,一面又能泰若自然的面对马丁,而当史蒂夫提出要抛弃家庭与她厮守时安娜却冷静地拒绝。某日马丁开门见到二人相会的情景,震惊和痛苦使他不慎跌下楼梯,史蒂夫匆忙下楼抱着死去的儿子,安娜此时却无声地离开,只留下身后中年男人无法重建的坍塌生活。

 

 

 

※※※※※※※ 参数信息 ※※※※※※※

 

片源:Damage.1992.720p.BluRay.X264-AMIABLE.mkv

 


General

Unique ID                      : 222876914990093144831138030534127652693 (0xA7AC884E975A52D4B0EE74D0DF720F55)


Format                         : Matroska

Format version                 : Version 4 / Version 2

File size                      : 5.46 GiB

Duration                       : 1 h 51 min

Overall bit rate               : 7 043 kb/s

Encoded date                   : UTC 2016-12-09 03:31:04

Writing application            : mkvmerge v9.4.2 ('So High') 64bit

Writing library                : libebml v1.3.4 + libmatroska v1.4.5


Video

ID                             : 1

Format                         : AVC

Format/Info                    : Advanced Video Codec

Format profile                 : High@L4.1

Format settings, CABAC         : Yes

Format settings, ReFrames      : 5 frames

Codec ID                       : V_MPEG4/ISO/AVC

Duration                       : 1 h 51 min

Bit rate                       : 6 405 kb/s

Width                          : 1 280 pixels

Height                         : 696 pixels

Display aspect ratio           : 1.85:1

Frame rate mode                : Constant

Frame rate                     : 23.976 (24000/1001) FPS

Color space                    : YUV

Chroma subsampling             : 4:2:0

Bit depth                      : 8 bits

Scan type                      : Progressive

Bits/(Pixel*Frame)             : 0.300

Stream size                    : 4.96 GiB (91%)

Writing library                : x264 core 140 r2377 1ca7bb9

Encoding settings              : cabac=1 / ref=5 / deblock=1:-3:-3 / 

Language                       : English

Default                        : Yes

Forced                         : No


Audio

ID                             : 2

Format                         : AC-3

Format/Info                    : Audio Coding 3

Mode extension                 : CM (complete main)

Format settings, Endianness    : Big

Codec ID                       : A_AC3

Duration                       : 1 h 51 min

Bit rate mode                  : Constant

Bit rate                       : 640 kb/s

Channel(s)                     : 2 channels

Channel positions              : Front: L R

Sampling rate                  : 48.0 kHz

Frame rate                     : 31.250 FPS (1536 spf)

Compression mode               : Lossy

Stream size                    : 508 MiB (9%)

Language                       : English

Default                        : Yes

Forced                         : No


Text #1

ID                             : 3

Format                         : ASS

Codec ID                       : S_TEXT/ASS

Codec ID/Info                  : Advanced Sub Station Alpha

Duration                       : 1 h 48 min

Bit rate                       : 85 b/s

Count of elements              : 922

Compression mode               : Lossless

Stream size                    : 68.3 KiB (0%)

Title                          : 中英字幕

Language                       : Chinese

Default                        : Yes

Forced                         : No


Text #2

ID                             : 4

Format                         : UTF-8

Codec ID                       : S_TEXT/UTF8

Codec ID/Info                  : UTF-8 Plain Text

Duration                       : 1 h 47 min

Bit rate                       : 33 b/s

Count of elements              : 997

Stream size                    : 26.0 KiB (0%)

Title                          : 英文字幕

Language                       : English

Default                        : No

Forced                         : No


Text #3

ID                             : 5

Format                         : UTF-8

Codec ID                       : S_TEXT/UTF8

Codec ID/Info                  : UTF-8 Plain Text

Duration                       : 1 h 47 min

Bit rate                       : 21 b/s

Count of elements              : 977

Stream size                    : 16.9 KiB (0%)

Title                          : 中文字幕

Language                       : Chinese

Default                        : No

Forced                         : No


 烈火情人.Damage.1992.迅雷下载.BluRay.1280x696p[中英双字] 欧美电影 第2张

 





除非特别注明,本文『烈火情人.Damage.1992.迅雷下载.BluRay.1280x696p[中英双字]』来源于互联网、微信平台、QQ空间以及其它朋友推荐等,非本站作者原创。 本站作者高清电影下载不对本文拥有版权,如有侵犯,请投诉。我们会在7个工作日内删除。 但烦请转载时请标明出处:“本文转载于『绿芽电影网』,原文地址:http://www.lvya.cc/5140.html
您可以使用eMule或eMule Mod(Windows)、aMule(Win、Linux、Mac)等软件下载eD2k链接。。
eMule收藏集(.emulecollection)文件是您选中的所有链接的列表文件。eMule可以直接下载它们。
按住SHIFT键选择可以选中多个选择框。
可用文件名和大小选择器来选择文件。
文件名选择器帮您根据文件名称或后缀来选择文件。不分大小写。
符号使用:
和:空格( )、+
不包含:-
或:|
转义:一对英文引号("");
匹配开头:^
匹配结尾:$
例如:
选中所有名称中包含有“eMule”或“0.49c”字眼,但不包含有“exe”字眼的:emule|0.49c -exe
选中所有名称的开头是“eMule”,结尾是“0.49c”的:^emule 0.49c$
选中所有名称中带有“eMule 0.49c”的(必须是“eMule 0.49c”,中间没有别的字符,不能是“eMule fake 0.49c”),需要转义:"emule 0.49c"
大小选择器帮您根据文件大小选择文件。