当前位置: 首页 >> 欧美电影 >> 送葬人/冤亲债主/蚀脑魔灵 The.Bye.Bye.Man.2017.1080p.迅雷下载 >> 正文

送葬人/冤亲债主/蚀脑魔灵 The.Bye.Bye.Man.2017.1080p.迅雷下载

2017年03月29日 00:01:51     电影发布:来源于网络     电影分类:欧美电影    

 送葬人/冤亲债主/蚀脑魔灵 The.Bye.Bye.Man.2017.1080p.迅雷下载 欧美电影 第1张

◎译  名 送葬人/冤亲债主(台)/蚀脑魔灵(港)

◎片  名 The Bye Bye Man

◎年  代 2017

◎国  家 美国

◎类  别 惊悚/恐怖

◎语  言 英语

◎上映日期 2017-01-06(台湾)/2017-01-13(美国)

◎IMDb评分  3.8/10 from 2,322 users

◎IMDb链接  http://www.imdb.com/title/tt4030600/

◎豆瓣评分 5.5/10 from 49 users

◎豆瓣链接 https://movie.douban.com/subject/26685111/

◎片  长 96分钟

◎导  演 斯泰茜·泰特 Stacy Title

◎主  演 道格拉斯·史密斯 Douglas Smith

      卢锡安·拉维斯科特 Lucien Laviscount

      克雷西达·博纳斯 Cressida Bonas

      道格·琼斯 Doug Jones

      迈克尔·特鲁科 Michael Trucco

      珍娜·凯内尔 Jenna Kanell

      埃丽卡·特伦布莱 Erica Tremblay

      玛丽莎·埃切维里亚 Marisa Echeverria

      克利奥·金 Cleo King

      费·唐纳薇 Faye Dunaway

      凯瑞-安·莫斯 Carrie-Anne Moss

      雷·沃纳尔 Leigh Whannell

      凯琳·伍黛尔 Keelin Woodell

      劳拉·诺克斯 Laura Knox

      乔纳森·潘内尔 Jonathan Penner


◎简  介


  October 14 will see the release of The Bye Bye Man, based on the short story The Bridge To Body Island. Directed by Stacy Title from an adaptation by Jonathan Penner, it stars Carrie-Anne Moss, Faye Dunaway, Douglas Smith, Cressida Bonas, Lucien Laviscount and Douglas Jones. The story about three college students who move off-campus and unwittingly unleash a supernatural entity is being produced by Trevor Macy, Jeffrey Soros and Simon Horsman. There are no other horror films slated for that Halloween period, though it’s early.


Video
ID                                       : 1
Format                                   : AVC
Format/Info                              : Advanced Video Codec
Format profile                           : High@L4
Format settings, CABAC                   : Yes
Format settings, ReFrames                : 4 frames
Codec ID                                 : V_MPEG4/ISO/AVC
Duration                                 : 1h 39mn
Bit rate                                 : 4 766 Kbps
Width                                    : 1 916 pixels
Height                                   : 1 032 pixels
Display aspect ratio                     : 1.85:1
Frame rate mode                          : Constant
Frame rate                               : 23.976 (24000/1001) fps
Color space                              : YUV
Chroma subsampling                       : 4:2:0
Bit depth                                : 8 bits
Scan type                                : Progressive
Bits/(Pixel*Frame)                       : 0.101
Stream size                              : 3.32 GiB (91%)
Title                                    : The.Bye.Bye.Man.2017.1080p.WEB-DL.DD5.1.H264-FGT
Language                                 : English
Default                                  : Yes
Forced                                   : No
Color range                              : Limited
Color primaries                          : BT.709
Transfer characteristics                 : BT.709
Matrix coefficients                      : BT.709

Audio
ID                                       : 2
Format                                   : AC-3
Format/Info                              : Audio Coding 3
Mode extension                           : CM (complete main)
Format settings, Endianness              : Big
Codec ID                                 : A_AC3
Duration                                 : 1h 39mn
Bit rate mode                            : Constant
Bit rate                                 : 384 Kbps
Channel(s)                               : 6 channels
Channel positions                        : Front: L C R, Side: L R, LFE
Sampling rate                            : 48.0 KHz
Frame rate                               : 31.250 fps (1536 spf)
Compression mode                         : Lossy
Stream size                              : 274 MiB (7%)
Title                                    : The.Bye.Bye.Man.2017.1080p.WEB-DL.DD5.1.H264-FGT
Language                                 : English
Default                                  : Yes
Forced                                   : No

Text
ID                                       : 3
Format                                   : UTF-8
Codec ID                                 : S_TEXT/UTF8
Codec ID/Info                            : UTF-8 Plain Text
Language                                 : English
Default                                  : Yes
Forced                                   : No

Menu
00:00:00.000                             : en:1
00:06:12.622                             : en:2
00:11:45.871                             : en:3
00:16:34.951                             : en:4
00:20:58.506                             : en:5
00:26:36.760                             : en:6
00:30:01.297                             : en:7
00:34:59.178                             : en:8
00:39:19.354                             : en:9
00:42:50.148                             : en:10
00:47:52.825                             : en:11
00:53:00.924                             : en:12
00:57:54.050                             : en:13
01:02:58.396                             : en:14
01:07:05.601                             : en:15
01:11:02.796                             : en:16
01:18:20.608                             : en:17
01:22:40.034                             : en:18
01:30:46.019                             : en:19
01:33:26.012                             : en:20



 送葬人/冤亲债主/蚀脑魔灵 The.Bye.Bye.Man.2017.1080p.迅雷下载 欧美电影 第2张

 送葬人/冤亲债主/蚀脑魔灵 The.Bye.Bye.Man.2017.1080p.迅雷下载 欧美电影 第3张

 送葬人/冤亲债主/蚀脑魔灵 The.Bye.Bye.Man.2017.1080p.迅雷下载 欧美电影 第4张

 送葬人/冤亲债主/蚀脑魔灵 The.Bye.Bye.Man.2017.1080p.迅雷下载 欧美电影 第5张

 送葬人/冤亲债主/蚀脑魔灵 The.Bye.Bye.Man.2017.1080p.迅雷下载 欧美电影 第6张

 送葬人/冤亲债主/蚀脑魔灵 The.Bye.Bye.Man.2017.1080p.迅雷下载 欧美电影 第7张





除非特别注明,本文『送葬人/冤亲债主/蚀脑魔灵 The.Bye.Bye.Man.2017.1080p.迅雷下载』来源于互联网、微信平台、QQ空间以及其它朋友推荐等,非本站作者原创。 本站作者高清电影下载不对本文拥有版权,如有侵犯,请投诉。我们会在7个工作日内删除。 但烦请转载时请标明出处:“本文转载于『绿芽电影网』,原文地址:http://www.lvya.cc/5139.html
您可以使用eMule或eMule Mod(Windows)、aMule(Win、Linux、Mac)等软件下载eD2k链接。。
eMule收藏集(.emulecollection)文件是您选中的所有链接的列表文件。eMule可以直接下载它们。
按住SHIFT键选择可以选中多个选择框。
可用文件名和大小选择器来选择文件。
文件名选择器帮您根据文件名称或后缀来选择文件。不分大小写。
符号使用:
和:空格( )、+
不包含:-
或:|
转义:一对英文引号("");
匹配开头:^
匹配结尾:$
例如:
选中所有名称中包含有“eMule”或“0.49c”字眼,但不包含有“exe”字眼的:emule|0.49c -exe
选中所有名称的开头是“eMule”,结尾是“0.49c”的:^emule 0.49c$
选中所有名称中带有“eMule 0.49c”的(必须是“eMule 0.49c”,中间没有别的字符,不能是“eMule fake 0.49c”),需要转义:"emule 0.49c"
大小选择器帮您根据文件大小选择文件。