当前位置: 首页 >> 欧美电影 >> 午夜守门人.The Night Porter.1974.迅雷下载.1920x1040p[中英双字] >> 正文

午夜守门人.The Night Porter.1974.迅雷下载.1920x1040p[中英双字]

2017年03月29日 00:00:07     电影发布:来源于网络     电影分类:欧美电影    

午夜守门人.The Night Porter.1974.迅雷下载.1920x1040p[中英双字] 犯罪片 爱情片 剧情片 欧美电影  第1张


※※※※※※※ 影片信息 ※※※※※※※


◎片   名 The Night Porter

◎译   名 午夜守门人/狂恋 / 魂断多瑙河 /Il portiere di notte 

◎年   代 1974

◎国   家 意大利

◎类   别 剧情 / 爱情 / 情色 / 犯罪

◎语   言 英语

◎上映日 期 1974-04-03

◎字   幕 中英双字/中文字幕/英文字幕

◎IMDB评分   

◎视频尺 寸  1920x1040p

◎片   长 118 mins

◎导   演 莉莉安娜·卡瓦尼

◎编     剧  莉莉安娜·卡瓦尼

◎主   演 德克·博加德 / 夏洛特·兰普林 / 菲利普·勒鲁瓦 / 加布里埃尔·费泽蒂




 

◎简  介

  另类的爱情故事,肢体纠结的情色语言。 

  1957年,原纳粹军官Max(Dirk Bogarde 饰)隐姓埋名,在维也纳一家酒店当午夜守门人。某日,他遇到著名指挥家的妻子Lucia(Charlotte Rampling 饰),往事排山倒海而来。 

  原来,Lucia是纳粹集中营的幸存者,当年是Max的性奴,也是他的情人,Max对她一直念念不忘。 

  Max趁Lucia外出演出,和Lucia重逢,随即将她接到了自己的公寓,二人迅速恢复了往日的关系。 

  于此同时,Max所属纳粹余孽小团体也在寻找Lucia,想除掉这个有力的证人,Lucia的丈夫也因为妻子失踪而报警。Max走投无路,只能囤积了大量食品在公寓里,和Lucia足不出户,靠性爱彼此安慰,忘记现实的困境,等待终将来临的救赎或者毁灭





片源:The.Night.Porter.1974.1080p.CRiTERiON.BluRay.x264-BARC0DE1.mkv




General

Unique ID                      : 230777715601580962796061986442112509337 (0xAD9E2BDA2618270699DB60DA7331A599)



Format                         : Matroska

Format version                 : Version 4 / Version 2

File size                      : 8.70 GiB

Duration                       : 1 h 58 min

Overall bit rate               : 10.5 Mb/s

Encoded date                   : UTC 2016-12-16 10:31:12

Writing application            : mkvmerge v9.4.2 ('So High') 64bit

Writing library                : libebml v1.3.4 + libmatroska v1.4.5


Video

ID                             : 1

Format                         : AVC

Format/Info                    : Advanced Video Codec

Format profile                 : High@L4.1

Format settings, CABAC         : Yes

Format settings, ReFrames      : 4 frames

Codec ID                       : V_MPEG4/ISO/AVC

Duration                       : 1 h 58 min

Bit rate                       : 10 000 kb/s

Width                          : 1 920 pixels

Height                         : 1 040 pixels

Display aspect ratio           : 1.85:1

Frame rate mode                : Constant

Frame rate                     : 23.976 (24000/1001) FPS

Color space                    : YUV

Chroma subsampling             : 4:2:0

Bit depth                      : 8 bits

Scan type                      : Progressive

Bits/(Pixel*Frame)             : 0.209

Stream size                    : 8.17 GiB (94%)

Writing library                : x264 core 142 r2479 dd79a61

Encoding settings              : cabac=1 / ref=3 / deblock=1:0:0 / 

Default                        : Yes

Forced                         : No

Color range                    : Limited

Color primaries                : BT.709

Transfer characteristics       : BT.709

Matrix coefficients            : BT.709


Audio

ID                             : 2

Format                         : AC-3

Format/Info                    : Audio Coding 3

Mode extension                 : CM (complete main)

Format settings, Endianness    : Big

Codec ID                       : A_AC3

Duration                       : 1 h 58 min

Bit rate mode                  : Constant

Bit rate                       : 640 kb/s

Channel(s)                     : 1 channel

Channel positions              : Front: C

Sampling rate                  : 48.0 kHz

Frame rate                     : 31.250 FPS (1536 spf)

Compression mode               : Lossy

Delay relative to video        : -5 ms

Stream size                    : 542 MiB (6%)

Title                          : Mono

Language                       : English

Default                        : Yes

Forced                         : No


Text #1

ID                             : 3

Format                         : SSA

Codec ID                       : S_TEXT/SSA

Codec ID/Info                  : Sub Station Alpha

Duration                       : 1 h 56 min

Bit rate                       : 197 b/s

Count of elements              : 766

Compression mode               : Lossless

Stream size                    : 169 KiB (0%)

Title                          : 中英字幕

Language                       : Chinese

Default                        : Yes

Forced                         : No


Text #2

ID                             : 4

Format                         : UTF-8

Codec ID                       : S_TEXT/UTF8

Codec ID/Info                  : UTF-8 Plain Text

Duration                       : 1 h 49 min

Bit rate                       : 49 b/s

Count of elements              : 697

Stream size                    : 39.8 KiB (0%)

Title                          : 中文字幕

Language                       : Chinese

Default                        : No

Forced                         : No


Text #3

ID                             : 5

Format                         : UTF-8

Codec ID                       : S_TEXT/UTF8

Codec ID/Info                  : UTF-8 Plain Text

Duration                       : 1 h 53 min

Bit rate                       : 56 b/s

Count of elements              : 799

Stream size                    : 46.9 KiB (0%)

Title                          : 英文字幕

Language                       : English

Default                        : No

Forced                         : No

午夜守门人.The Night Porter.1974.迅雷下载.1920x1040p[中英双字] 犯罪片 爱情片 剧情片 欧美电影  第2张





除非特别注明,本文『午夜守门人.The Night Porter.1974.迅雷下载.1920x1040p[中英双字]』来源于互联网、微信平台、QQ空间以及其它朋友推荐等,非本站作者原创。 本站作者高清电影下载不对本文拥有版权,如有侵犯,请投诉。我们会在7个工作日内删除。 但烦请转载时请标明出处:“本文转载于『绿芽电影网』,原文地址:http://www.lvya.cc/5138.html
您可以使用eMule或eMule Mod(Windows)、aMule(Win、Linux、Mac)等软件下载eD2k链接。。
eMule收藏集(.emulecollection)文件是您选中的所有链接的列表文件。eMule可以直接下载它们。
按住SHIFT键选择可以选中多个选择框。
可用文件名和大小选择器来选择文件。
文件名选择器帮您根据文件名称或后缀来选择文件。不分大小写。
符号使用:
和:空格( )、+
不包含:-
或:|
转义:一对英文引号("");
匹配开头:^
匹配结尾:$
例如:
选中所有名称中包含有“eMule”或“0.49c”字眼,但不包含有“exe”字眼的:emule|0.49c -exe
选中所有名称的开头是“eMule”,结尾是“0.49c”的:^emule 0.49c$
选中所有名称中带有“eMule 0.49c”的(必须是“eMule 0.49c”,中间没有别的字符,不能是“eMule fake 0.49c”),需要转义:"emule 0.49c"
大小选择器帮您根据文件大小选择文件。