当前位置: 首页 >> 欧美电影 >> 情人.The Lover.1992.BluRay.1920x1040p.迅雷下载.[英语中字] >> 正文

情人.The Lover.1992.BluRay.1920x1040p.迅雷下载.[英语中字]

2017年03月28日 23:58:28     电影发布:来源于网络     电影分类:欧美电影    

 情人.The Lover.1992.BluRay.1920x1040p.迅雷下载.[英语中字] 欧美电影 第1张



※※※※※※※ 影片信息 ※※※※※※※


◎片   名 L'amant

◎译   名 情人/The Lover

◎年   代 1992

◎国   家 法国 / 英国 / 越南

◎类   别 剧情 / 爱情 / 情色 / 传记

◎语   言 英语 / 粤语

◎上映日 期 1992-01-22(法国) / 1992-06-19(英国)

◎字   幕 简体字幕/繁体字幕

◎IMDB评分   6.9/10 from 15,285 users

◎视频尺 寸  1920x1040p

◎片   长 110 mins

◎导   演 让-雅克·阿诺

◎编     剧  让-雅克·阿诺 / 格拉德·布拉奇 / 玛格丽特·杜拉斯

◎主   演 珍·玛奇 / 梁家辉 / Arnaud Giovaninetti / Frédérique Meininger




 

◎简  介

  1929年的越南是法国殖民地,简(珍·玛奇 饰)是一个15岁的法国少女,在西贡女子寄宿学校读书。每逢假期简便回家,母亲办了一所很小的学校,收入甚少。简有两个哥哥,大哥比尔吸毒成瘾且横行霸道,二哥保罗生性懦弱,常受大哥的欺负。一天简一如往常一样告别母亲乘上渡船回学校,在船上遇到一个坐黑色大轿车的阔少爷东尼(梁家辉饰)。东尼是华侨富翁的独生子,东尼喜欢这名白人少女便去搭讪,两人便搭上了。 

  简在寄宿学校里知道有的女生在外卖淫,她也想找个有钱人试试,因此很主动与东尼交谈。上岸后两人逛了西贡,还一起上馆子吃中国饭菜,东尼并用汽车送她回学校。第二天刚放学,黑色汽车就等在校门口了。 

  简和东尼很快就坠入爱河。东尼把简带到他的公馆,这是中国富人们常用来金屋藏娇的地方。他俩在这里幽会、洗澡、玩耍。有时晚上也不回学校,校方只好通知她的母亲,然而…





片源:The.Lover.1992.LIMITED.1080p.BluRay.x264-Counterfeit.mkv




General

Unique ID                      : 233401978000544841120842355680657652056 (0xAF9795FA558AF8A1996DEB5EC2A1B958)


Format                         : Matroska

Format version                 : Version 4 / Version 2

File size                      : 7.94 GiB

Duration                       : 1 h 50 min

Overall bit rate               : 10.3 Mb/s

Encoded date                   : UTC 2016-12-16 15:27:39

Writing application            : mkvmerge v9.4.2 ('So High') 64bit

Writing library                : libebml v1.3.4 + libmatroska v1.4.5


Video

ID                             : 1

Format                         : AVC

Format/Info                    : Advanced Video Codec

Format profile                 : High@L4.1

Format settings, CABAC         : Yes

Format settings, ReFrames      : 4 frames

Codec ID                       : V_MPEG4/ISO/AVC

Duration                       : 1 h 50 min

Bit rate                       : 9 485 kb/s

Width                          : 1 920 pixels

Height                         : 1 040 pixels

Display aspect ratio           : 1.85:1

Frame rate mode                : Constant

Frame rate                     : 25.000 FPS

Color space                    : YUV

Chroma subsampling             : 4:2:0

Bit depth                      : 8 bits

Scan type                      : Progressive

Bits/(Pixel*Frame)             : 0.190

Stream size                    : 7.34 GiB (92%)

Writing library                : x264 core 125 r2208 d9d2288

Encoding settings              : cabac=1 / ref=4 / deblock=1:0:0 / 

Language                       : English

Default                        : No

Forced                         : No


Audio

ID                             : 2

Format                         : DTS

Format/Info                    : Digital Theater Systems

Mode                           : 16

Format settings, Endianness    : Big

Codec ID                       : A_DTS

Duration                       : 1 h 50 min

Bit rate mode                  : Constant

Bit rate                       : 768 kb/s

Channel(s)                     : 2 channels

Channel positions              : Front: L R

Sampling rate                  : 48.0 kHz

Frame rate                     : 93.750 FPS (512 spf)

Bit depth                      : 24 bits

Compression mode               : Lossy

Stream size                    : 609 MiB (7%)

Title                          : english

Language                       : English

Default                        : Yes

Forced                         : No


Text #1

ID                             : 3

Format                         : ASS

Codec ID                       : S_TEXT/ASS

Codec ID/Info                  : Advanced Sub Station Alpha

Duration                       : 1 h 47 min

Bit rate                       : 85 b/s

Count of elements              : 832

Compression mode               : Lossless

Stream size                    : 67.5 KiB (0%)

Title                          : 简体字幕

Language                       : Chinese

Default                        : Yes

Forced                         : No


Text #2

ID                             : 4

Format                         : ASS

Codec ID                       : S_TEXT/ASS

Codec ID/Info                  : Advanced Sub Station Alpha

Duration                       : 1 h 47 min

Bit rate                       : 85 b/s

Count of elements              : 832

Compression mode               : Lossless

Stream size                    : 67.5 KiB (0%)

Title                          : 繁体字幕

Language                       : Chinese

Default                        : No

Forced                         : No

 情人.The Lover.1992.BluRay.1920x1040p.迅雷下载.[英语中字] 欧美电影 第2张






除非特别注明,本文『情人.The Lover.1992.BluRay.1920x1040p.迅雷下载.[英语中字]』来源于互联网、微信平台、QQ空间以及其它朋友推荐等,非本站作者原创。 本站作者高清电影下载不对本文拥有版权,如有侵犯,请投诉。我们会在7个工作日内删除。 但烦请转载时请标明出处:“本文转载于『绿芽电影网』,原文地址:http://www.lvya.cc/5137.html
您可以使用eMule或eMule Mod(Windows)、aMule(Win、Linux、Mac)等软件下载eD2k链接。。
eMule收藏集(.emulecollection)文件是您选中的所有链接的列表文件。eMule可以直接下载它们。
按住SHIFT键选择可以选中多个选择框。
可用文件名和大小选择器来选择文件。
文件名选择器帮您根据文件名称或后缀来选择文件。不分大小写。
符号使用:
和:空格( )、+
不包含:-
或:|
转义:一对英文引号("");
匹配开头:^
匹配结尾:$
例如:
选中所有名称中包含有“eMule”或“0.49c”字眼,但不包含有“exe”字眼的:emule|0.49c -exe
选中所有名称的开头是“eMule”,结尾是“0.49c”的:^emule 0.49c$
选中所有名称中带有“eMule 0.49c”的(必须是“eMule 0.49c”,中间没有别的字符,不能是“eMule fake 0.49c”),需要转义:"emule 0.49c"
大小选择器帮您根据文件大小选择文件。