当前位置: 首页 >> 欧美电影 >> 精神病的秘密 Secrets.of.a.Psychopath.2015.1080p.迅雷下载 >> 正文

精神病的秘密 Secrets.of.a.Psychopath.2015.1080p.迅雷下载

2017年03月28日 23:57:07     电影发布:来源于网络     电影分类:欧美电影    

 精神病的秘密 Secrets.of.a.Psychopath.2015.1080p.迅雷下载 欧美电影 第1张

◎译  名 精神病的秘密

◎片  名 Secrets of a Psychopath

◎年  代 2014

◎国  家 美国

◎类  别 惊悚

◎语  言 英语

◎上映日期 2015-11-03(美国)

◎IMDb评分  5.0/10 from 69 users

◎IMDb链接  http://www.imdb.com/title/tt2855724/

◎片  长 91min

◎导  演 Bert I. Gordon

◎主  演 卡瑞·伍尔 Kari Wuhrer

      马克·法姆吉列蒂 Mark Famiglietti

      米娅·塞拉菲诺 Mia Serafino

      Ty Fanning

      Hilary Anderson

      Mary Anthony


◎简  介


  Two siblings lure unsuspecting victims to their house through a dating site for games and slaughter. It's "Psycho" meets the Craigslist Killer. The new film from cult director Bert I. Gordon - The Amazing Colossal Man, Earth vs the Spider, Empire of the Ants, and The Food of the Gods.


Video
ID                                       : 1
Format                                   : AVC
Format/Info                              : Advanced Video Codec
Format profile                           : High@L4.1
Format settings, CABAC                   : Yes
Format settings, ReFrames                : 4 frames
Codec ID                                 : V_MPEG4/ISO/AVC
Duration                                 : 1h 30mn
Bit rate                                 : 5 692 Kbps
Nominal bit rate                         : 6 000 Kbps
Width                                    : 1 920 pixels
Height                                   : 1 072 pixels
Display aspect ratio                     : 16:9
Frame rate mode                          : Constant
Frame rate                               : 23.976 (23976/1000) fps
Color space                              : YUV
Chroma subsampling                       : 4:2:0
Bit depth                                : 8 bits
Scan type                                : Progressive
Bits/(Pixel*Frame)                       : 0.115
Stream size                              : 3.61 GiB (92%)
Title                                    : Secrets.of.a.Psychopath.2015.1080p.WEBRip.DD5.1.x264-FGT
Writing library                          : x264 core 142 r2491 24e4fed
Encoding settings                        : cabac=1 / ref=3 / deblock=1:0:0 / analyse=0x3:0x113 / me=hex / subme=7 / psy=1 / psy_rd=1.00:0.00 / mixed_ref=1 / me_range=16 / chroma_me=1 / trellis=1 / 8x8dct=1 / cqm=0 / deadzone=21,11 / fast_pskip=1 / chroma_qp_offset=-2 / threads=6 / lookahead_threads=1 / sliced_threads=0 / nr=0 / decimate=1 / interlaced=0 / bluray_compat=0 / constrained_intra=0 / bframes=3 / b_pyramid=2 / b_adapt=1 / b_bias=0 / direct=1 / weightb=1 / open_gop=0 / weightp=2 / keyint=240 / keyint_min=24 / scenecut=40 / intra_refresh=0 / rc_lookahead=40 / rc=abr / mbtree=1 / bitrate=6000 / ratetol=1.0 / qcomp=0.60 / qpmin=0 / qpmax=69 / qpstep=4 / vbv_maxrate=62500 / vbv_bufsize=78125 / nal_hrd=none / filler=0 / ip_ratio=1.40 / aq=1:1.00
Default                                  : Yes
Forced                                   : No
Color range                              : Limited
Color primaries                          : BT.709
Transfer characteristics                 : BT.709
Matrix coefficients                      : BT.709

Audio
ID                                       : 2
Format                                   : AC-3
Format/Info                              : Audio Coding 3
Mode extension                           : CM (complete main)
Format settings, Endianness              : Big
Codec ID                                 : A_AC3
Duration                                 : 1h 30mn
Bit rate mode                            : Constant
Bit rate                                 : 384 Kbps
Channel(s)                               : 6 channels
Channel positions                        : Front: L C R, Side: L R, LFE
Sampling rate                            : 44.1 KHz
Frame rate                               : 28.711 fps (1536 spf)
Compression mode                         : Lossy
Stream size                              : 249 MiB (6%)
Title                                    : Secrets.of.a.Psychopath.2015.1080p.WEBRip.DD5.1.x264-FGT
Language                                 : English
Default                                  : Yes
Forced                                   : No

Text
ID                                       : 3
Format                                   : UTF-8
Codec ID                                 : S_TEXT/UTF8
Codec ID/Info                            : UTF-8 Plain Text
Language                                 : English
Default                                  : Yes
Forced                                   : No


 精神病的秘密 Secrets.of.a.Psychopath.2015.1080p.迅雷下载 欧美电影 第2张 精神病的秘密 Secrets.of.a.Psychopath.2015.1080p.迅雷下载 欧美电影 第3张
 精神病的秘密 Secrets.of.a.Psychopath.2015.1080p.迅雷下载 欧美电影 第4张 精神病的秘密 Secrets.of.a.Psychopath.2015.1080p.迅雷下载 欧美电影 第5张
 精神病的秘密 Secrets.of.a.Psychopath.2015.1080p.迅雷下载 欧美电影 第6张 精神病的秘密 Secrets.of.a.Psychopath.2015.1080p.迅雷下载 欧美电影 第7张






除非特别注明,本文『精神病的秘密 Secrets.of.a.Psychopath.2015.1080p.迅雷下载』来源于互联网、微信平台、QQ空间以及其它朋友推荐等,非本站作者原创。 本站作者高清电影下载不对本文拥有版权,如有侵犯,请投诉。我们会在7个工作日内删除。 但烦请转载时请标明出处:“本文转载于『绿芽电影网』,原文地址:http://www.lvya.cc/5136.html
您可以使用eMule或eMule Mod(Windows)、aMule(Win、Linux、Mac)等软件下载eD2k链接。。
eMule收藏集(.emulecollection)文件是您选中的所有链接的列表文件。eMule可以直接下载它们。
按住SHIFT键选择可以选中多个选择框。
可用文件名和大小选择器来选择文件。
文件名选择器帮您根据文件名称或后缀来选择文件。不分大小写。
符号使用:
和:空格( )、+
不包含:-
或:|
转义:一对英文引号("");
匹配开头:^
匹配结尾:$
例如:
选中所有名称中包含有“eMule”或“0.49c”字眼,但不包含有“exe”字眼的:emule|0.49c -exe
选中所有名称的开头是“eMule”,结尾是“0.49c”的:^emule 0.49c$
选中所有名称中带有“eMule 0.49c”的(必须是“eMule 0.49c”,中间没有别的字符,不能是“eMule fake 0.49c”),需要转义:"emule 0.49c"
大小选择器帮您根据文件大小选择文件。