当前位置: 首页 >> 欧美电影 >> 犹大的鬼魂 Judas.Ghost.2015.1080p.迅雷下载 >> 正文

犹大的鬼魂 Judas.Ghost.2015.1080p.迅雷下载

2017年03月28日 23:55:27     电影发布:高清电影下载     电影分类:欧美电影     阅读次数:人次阅读">    

 犹大的鬼魂 Judas.Ghost.2015.1080p.迅雷下载 欧美电影 第1张

◎译  名 犹大的鬼魂

◎片  名 Judas Ghost

◎年  代 2015

◎国  家 英国

◎类  别 恐怖/奇幻

◎语  言 英语

◎上映日期 2013-10-01(英国)

◎IMDb评分  4.7/10 from 331 users

◎IMDb链接  http://www.imdb.com/title/tt2338027/

◎BT之家整理 http://www.btbtt.co

◎片  长 75分钟

◎导  演 Simon Pearce

◎主  演 Martin Delaney

      Simon Merrells

      Lucy Cudden


◎简  介


  A team of professional ghost finders become trapped in an old village hall and must fight for their survival when an apparently standard haunting turns out to be farworse than they first anticipated. Based on the Ghost Finders book series by New York Times best-selling author Simon R. Green.


Video
ID                                       : 1
Format                                   : AVC
Format/Info                              : Advanced Video Codec
Format profile                           : High@L4
Format settings, CABAC                   : Yes
Format settings, ReFrames                : 4 frames
Codec ID                                 : V_MPEG4/ISO/AVC
Duration                                 : 1h 16mn
Bit rate mode                            : Variable
Bit rate                                 : 9 624 Kbps
Maximum bit rate                         : 15.0 Mbps
Width                                    : 1 920 pixels
Height                                   : 1 040 pixels
Display aspect ratio                     : 1.85:1
Frame rate mode                          : Constant
Frame rate                               : 24.000 fps
Color space                              : YUV
Chroma subsampling                       : 4:2:0
Bit depth                                : 8 bits
Scan type                                : Progressive
Bits/(Pixel*Frame)                       : 0.201
Stream size                              : 5.12 GiB (94%)
Title                                    : Judas.Ghost.2015.1080p.WEBRip.DD5.1.x264-FGT
Writing library                          : x264 core 148 r2623 d5b2374
Encoding settings                        : cabac=1 / ref=4 / deblock=1:-1:-1 / analyse=0x3:0x133 / me=umh / subme=9 / psy=1 / psy_rd=1.00:0.15 / mixed_ref=1 / me_range=24 / chroma_me=1 / trellis=2 / 8x8dct=1 / cqm=0 / deadzone=21,11 / fast_pskip=1 / chroma_qp_offset=-3 / threads=32 / lookahead_threads=5 / sliced_threads=0 / nr=150 / decimate=1 / interlaced=0 / bluray_compat=0 / constrained_intra=0 / bframes=8 / b_pyramid=2 / b_adapt=2 / b_bias=0 / direct=3 / weightb=1 / open_gop=0 / weightp=2 / keyint=120 / keyint_min=61 / scenecut=0 / intra_refresh=0 / rc_lookahead=120 / rc=crf / mbtree=1 / crf=18.0 / qcomp=0.60 / qpmin=0 / qpmax=69 / qpstep=4 / vbv_maxrate=15000 / vbv_bufsize=31250 / crf_max=0.0 / nal_hrd=vbr / filler=0 / ip_ratio=1.40 / aq=3:1.00
Default                                  : Yes
Forced                                   : No
Color range                              : Limited
Color primaries                          : BT.709
Transfer characteristics                 : BT.709
Matrix coefficients                      : BT.709

Audio
ID                                       : 2
Format                                   : AC-3
Format/Info                              : Audio Coding 3
Mode extension                           : CM (complete main)
Format settings, Endianness              : Big
Codec ID                                 : A_AC3
Duration                                 : 1h 16mn
Bit rate mode                            : Constant
Bit rate                                 : 384 Kbps
Channel(s)                               : 6 channels
Channel positions                        : Front: L C R, Side: L R, LFE
Sampling rate                            : 48.0 KHz
Frame rate                               : 31.250 fps (1536 spf)
Compression mode                         : Lossy
Delay relative to video                  : -83ms
Stream size                              : 209 MiB (4%)
Title                                    : Judas.Ghost.2015.1080p.WEBRip.DD5.1.x264-FGT
Language                                 : English
Default                                  : Yes
Forced                                   : No

Text
ID                                       : 3
Format                                   : UTF-8
Codec ID                                 : S_TEXT/UTF8
Codec ID/Info                            : UTF-8 Plain Text
Language                                 : English
Default                                  : Yes
Forced                                   : No


 犹大的鬼魂 Judas.Ghost.2015.1080p.迅雷下载 欧美电影 第2张 犹大的鬼魂 Judas.Ghost.2015.1080p.迅雷下载 欧美电影 第3张
 犹大的鬼魂 Judas.Ghost.2015.1080p.迅雷下载 欧美电影 第4张 犹大的鬼魂 Judas.Ghost.2015.1080p.迅雷下载 欧美电影 第5张
 犹大的鬼魂 Judas.Ghost.2015.1080p.迅雷下载 欧美电影 第6张 犹大的鬼魂 Judas.Ghost.2015.1080p.迅雷下载 欧美电影 第7张





除非特别注明,本文『犹大的鬼魂 Judas.Ghost.2015.1080p.迅雷下载』来源于互联网、微信平台、QQ空间以及其它朋友推荐等,非本站作者原创。 本站作者高清电影下载不对本文拥有版权,如有侵犯,请投诉。我们会在7个工作日内删除。 但烦请转载时请标明出处:“本文转载于『绿芽电影网』,原文地址:http://www.lvya.cc/5135.html
您可以使用eMule或eMule Mod(Windows)、aMule(Win、Linux、Mac)等软件下载eD2k链接。。
eMule收藏集(.emulecollection)文件是您选中的所有链接的列表文件。eMule可以直接下载它们。
按住SHIFT键选择可以选中多个选择框。
可用文件名和大小选择器来选择文件。
文件名选择器帮您根据文件名称或后缀来选择文件。不分大小写。
符号使用:
和:空格( )、+
不包含:-
或:|
转义:一对英文引号("");
匹配开头:^
匹配结尾:$
例如:
选中所有名称中包含有“eMule”或“0.49c”字眼,但不包含有“exe”字眼的:emule|0.49c -exe
选中所有名称的开头是“eMule”,结尾是“0.49c”的:^emule 0.49c$
选中所有名称中带有“eMule 0.49c”的(必须是“eMule 0.49c”,中间没有别的字符,不能是“eMule fake 0.49c”),需要转义:"emule 0.49c"
大小选择器帮您根据文件大小选择文件。