当前位置: 首页 >> 欧美电影 >> 死者的天启 Deadman.Apocalypse.2016.1080p.迅雷下载 >> 正文

死者的天启 Deadman.Apocalypse.2016.1080p.迅雷下载

2017年03月28日 23:54:19     电影发布:来源于网络     电影分类:欧美电影    

死者的天启 Deadman.Apocalypse.2016.1080p.迅雷下载 冒险片 欧美电影 第1张

◎译  名 死者的天启

◎片  名 Deadman Apocalypse

◎年  代 2016

◎国  家 英国

◎类  别 冒险

◎语  言 英语

◎上映日期 2016-06-14(美国)

◎IMDb评分  2.3/10 from 110 users

◎IMDb链接  http://www.imdb.com/title/tt4606498/

◎BT之家整理 http://www.btbtt.co

◎片  长 78分钟

◎导  演 Charlie Steeds

◎主  演 Costa Chard

      Kate Marie Davies

      Barrington De La Roche

      Edward Carlton

      Sabrina Dickens

      Steve Speak

      Dylan Curtis

      Jackson Wright

      Joel Henderson

      Miguel de Barros

      David Lenik


◎简  介


  In the distant future, Jack Deadman and his military team are the final hope to save our dying earth from its hellish apocalypse. The mission is to enter the underground world of Labyrinthia and retrieve the water stolen by the savage inhabitants below... 10 years later, the mission has failed, and Jack Deadman exists in isolation, trapped and buried deep within Labyrinthia. A lone wolf anti-hero, changed by failure and guilt. But when the opportunity to escape arises once again, Jack will begin a quest for vengeance and redemption in one last attempt to escape from Labyrinthia.


Video
ID                                       : 1
Format                                   : AVC
Format/Info                              : Advanced Video Codec
Format profile                           : High@L4
Format settings, CABAC                   : Yes
Format settings, ReFrames                : 4 frames
Codec ID                                 : V_MPEG4/ISO/AVC
Duration                                 : 1h 18mn
Bit rate mode                            : Variable
Bit rate                                 : 5 506 Kbps
Maximum bit rate                         : 15.0 Mbps
Width                                    : 1 920 pixels
Height                                   : 1 080 pixels
Display aspect ratio                     : 16:9
Frame rate mode                          : Constant
Frame rate                               : 25.000 fps
Color space                              : YUV
Chroma subsampling                       : 4:2:0
Bit depth                                : 8 bits
Scan type                                : Progressive
Bits/(Pixel*Frame)                       : 0.106
Stream size                              : 3.01 GiB (92%)
Title                                    : Deadman.Apocalypse.2016.1080p.WEBRip.DD5.1.x264-FGT
Writing library                          : x264 core 148 r2623 d5b2374
Encoding settings                        : cabac=1 / ref=4 / deblock=1:-1:-1 / analyse=0x3:0x133 / me=umh / subme=9 / psy=1 / psy_rd=1.00:0.15 / mixed_ref=1 / me_range=24 / chroma_me=1 / trellis=2 / 8x8dct=1 / cqm=0 / deadzone=21,11 / fast_pskip=1 / chroma_qp_offset=-3 / threads=34 / lookahead_threads=5 / sliced_threads=0 / nr=150 / decimate=1 / interlaced=0 / bluray_compat=0 / constrained_intra=0 / bframes=8 / b_pyramid=2 / b_adapt=2 / b_bias=0 / direct=3 / weightb=1 / open_gop=0 / weightp=2 / keyint=125 / keyint_min=63 / scenecut=0 / intra_refresh=0 / rc_lookahead=125 / rc=crf / mbtree=1 / crf=18.0 / qcomp=0.60 / qpmin=0 / qpmax=69 / qpstep=4 / vbv_maxrate=15000 / vbv_bufsize=31250 / crf_max=0.0 / nal_hrd=vbr / filler=0 / ip_ratio=1.40 / aq=3:1.00
Default                                  : Yes
Forced                                   : No
Color range                              : Limited
Color primaries                          : BT.709
Transfer characteristics                 : BT.709
Matrix coefficients                      : BT.709

Audio
ID                                       : 2
Format                                   : AC-3
Format/Info                              : Audio Coding 3
Mode extension                           : CM (complete main)
Format settings, Endianness              : Big
Codec ID                                 : A_AC3
Duration                                 : 1h 18mn
Bit rate mode                            : Constant
Bit rate                                 : 384 Kbps
Channel(s)                               : 6 channels
Channel positions                        : Front: L C R, Side: L R, LFE
Sampling rate                            : 48.0 KHz
Frame rate                               : 31.250 fps (1536 spf)
Compression mode                         : Lossy
Delay relative to video                  : -80ms
Stream size                              : 215 MiB (6%)
Title                                    : Deadman.Apocalypse.2016.1080p.WEBRip.DD5.1.x264-FGT
Language                                 : English
Default                                  : Yes
Forced                                   : No

Text
ID                                       : 3
Format                                   : UTF-8
Codec ID                                 : S_TEXT/UTF8
Codec ID/Info                            : UTF-8 Plain Text
Language                                 : English
Default                                  : Yes
Forced                                   : No


死者的天启 Deadman.Apocalypse.2016.1080p.迅雷下载 冒险片 欧美电影 第2张死者的天启 Deadman.Apocalypse.2016.1080p.迅雷下载 冒险片 欧美电影 第3张
死者的天启 Deadman.Apocalypse.2016.1080p.迅雷下载 冒险片 欧美电影 第4张死者的天启 Deadman.Apocalypse.2016.1080p.迅雷下载 冒险片 欧美电影 第5张
死者的天启 Deadman.Apocalypse.2016.1080p.迅雷下载 冒险片 欧美电影 第6张死者的天启 Deadman.Apocalypse.2016.1080p.迅雷下载 冒险片 欧美电影 第7张





除非特别注明,本文『死者的天启 Deadman.Apocalypse.2016.1080p.迅雷下载』来源于互联网、微信平台、QQ空间以及其它朋友推荐等,非本站作者原创。 本站作者高清电影下载不对本文拥有版权,如有侵犯,请投诉。我们会在7个工作日内删除。 但烦请转载时请标明出处:“本文转载于『绿芽电影网』,原文地址:http://www.lvya.cc/5134.html
您可以使用eMule或eMule Mod(Windows)、aMule(Win、Linux、Mac)等软件下载eD2k链接。。
eMule收藏集(.emulecollection)文件是您选中的所有链接的列表文件。eMule可以直接下载它们。
按住SHIFT键选择可以选中多个选择框。
可用文件名和大小选择器来选择文件。
文件名选择器帮您根据文件名称或后缀来选择文件。不分大小写。
符号使用:
和:空格( )、+
不包含:-
或:|
转义:一对英文引号("");
匹配开头:^
匹配结尾:$
例如:
选中所有名称中包含有“eMule”或“0.49c”字眼,但不包含有“exe”字眼的:emule|0.49c -exe
选中所有名称的开头是“eMule”,结尾是“0.49c”的:^emule 0.49c$
选中所有名称中带有“eMule 0.49c”的(必须是“eMule 0.49c”,中间没有别的字符,不能是“eMule fake 0.49c”),需要转义:"emule 0.49c"
大小选择器帮您根据文件大小选择文件。